#TITLE:Levan Polkka;
#SUBTITLE:SDO China lv11 - [N]hok[Q] Simfile;
#ARTIST:Hatsune Miku;
#TITLETRANSLIT:;
#SUBTITLETRANSLIT:;
#ARTISTTRANSLIT:;
#CREDIT:[N]hok[Q];
#BANNER:bn.png;
#BACKGROUND:bg.png;
#LYRICSPATH:;
#CDTITLE:cd.png;
#MUSIC:Levan Polka.ogg;
#OFFSET:0.000;
#SAMPLESTART:50.419;
#SAMPLELENGTH:12.000;
#SELECTABLE:YES;
#BPMS:0.000=119.007,1.000=119.002,3.000=118.996,4.000=119.007,5.000=119.002,6.000=118.996,7.000=119.007,8.000=119.002,10.000=118.996,11.000=119.007,12.000=119.002,13.000=118.996,14.000=119.007,15.000=119.002,17.000=118.996,18.000=119.007,19.000=119.002,20.000=118.996,21.000=119.007,22.000=119.002,24.000=118.996,25.000=119.007,26.000=119.002,27.000=118.996,28.000=119.007,29.000=119.002,30.000=118.996,31.000=119.007,32.000=119.002,33.000=118.996,34.000=119.007,35.000=119.002,36.000=118.996,37.000=119.007,38.000=119.002,40.000=118.996,41.000=119.007,42.000=119.002,43.000=118.996,44.000=119.007,45.000=119.002,46.000=118.996,47.000=119.007,48.000=119.002,50.000=118.996,51.000=119.007,52.000=119.002,54.000=118.996,55.000=119.007,56.000=119.002,58.000=118.996,59.000=119.007,60.000=119.002,62.000=118.996,63.000=119.007,64.000=119.002,66.000=118.996,67.000=119.007,68.000=119.002,70.000=118.996,71.000=119.007,72.000=119.002,74.000=118.996,75.000=119.007,76.000=119.002,78.000=118.996,79.000=119.007,80.000=119.002,82.000=118.996,83.000=119.007,84.000=119.002,86.000=118.996,87.000=119.007,88.000=119.002,90.000=118.996,91.000=119.007,92.000=119.002,94.000=118.996,95.000=119.002,96.000=119.007,97.000=118.996,98.000=119.002,99.000=119.007,100.000=119.002,101.000=118.996,102.000=119.002,103.000=119.007,104.000=119.002,105.000=118.996,106.000=119.002,107.000=119.007,108.000=119.002,109.000=118.996,110.000=119.002,111.000=119.007,112.000=119.002,113.000=118.996,114.000=119.002,115.000=119.007,116.000=119.002,117.000=118.996,118.000=119.002,119.000=119.007,120.000=119.002,121.000=118.996,122.000=119.002,123.000=119.007,124.000=119.002,125.000=118.996,126.000=119.002,127.000=119.007,128.000=119.002,129.000=118.996,130.000=119.002,131.000=119.007,132.000=119.002,133.000=118.996,134.000=119.002,135.000=119.007,136.000=119.002,137.000=118.996,138.000=119.002,139.000=119.007,140.000=119.002,141.000=118.996,142.000=119.002,143.000=119.007,144.000=119.002,145.000=118.996,146.000=119.002,147.000=119.007,148.000=119.002,149.000=118.996,150.000=119.002,151.000=119.007,152.000=119.002,153.000=118.996,154.000=119.002,155.000=119.007,156.000=119.002,157.000=118.996,158.000=119.002,159.000=119.007,160.000=119.002,161.000=118.996,162.000=119.002,163.000=119.007,164.000=119.002,165.000=118.996,166.000=119.002,167.000=119.007,168.000=119.002,169.000=118.996,170.000=119.002,171.000=119.007,172.000=119.002,173.000=118.996,174.000=119.002,175.000=119.007,176.000=119.002,177.000=118.996,178.000=119.002,179.000=119.007,180.000=119.002,181.000=118.996,182.000=119.002,183.000=119.007,184.000=119.002,185.000=118.996,186.000=119.002,187.000=119.007,188.000=118.996,189.000=119.002,190.000=118.996,191.000=119.002,192.000=118.996,193.000=119.002,194.000=118.996,195.000=119.002,196.000=118.996,197.000=119.002,198.000=118.996,199.000=119.002,200.000=118.996,201.000=119.002,202.000=118.996,203.000=119.002,204.000=118.996,205.000=119.002,206.000=118.996,207.000=119.002,208.000=118.996,209.000=119.002,210.000=118.996,211.000=119.002,212.000=118.996,213.000=119.002,214.000=118.996,215.000=119.002,216.000=118.996,217.000=119.002,218.000=118.996,219.000=119.002,220.000=118.996,221.000=119.002,222.000=118.996,223.000=119.002,224.000=118.996,225.000=119.002,226.000=118.996,227.000=119.002,228.000=118.996,229.000=119.002,230.000=118.996;
#STOPS:;
#BGCHANGES:;
// cache tags:
#FIRSTBEAT:4.000;
#LASTBEAT:227.000;
#SONGFILENAME:Songs/Super Dancer Online/Levan Polkka/Levan Polkka.sm;
#HASMUSIC:1;
#HASBANNER:1;
#MUSICLENGTH:116.974;
// end cache tags

//---------------dance-single - ----------------
#NOTES:
     dance-single:
     :
     Hard:
     11:
     1.000,1.000,1.000,0.000,0.308,497.000,430.000,0.000,0.000,0.000:
0000
0000
0000
0000
,
0101
0010
1100
0001
1010
0100
1001
0110
,
0101
1000
0011
0100
1010
0001
0110
1100
,
0011
0100
1001
0010
0101
1000
0011
1100
,
0101
0010
1100
0010
0101
1000
0011
0110
,
1001
0100
0101
0010
1100
0010
1010
0110
,
0011
0000
1000
0000
1001
0000
0100
0000
1010
0000
0001
0000
0101
0000
1010
1000
,
0110
0001
0011
0100
1010
0001
1001
0110
,
1100
0001
1010
0100
0110
0000
0000
0000
,
1010
0101
0101
0010
1100
0011
0011
1000
,
0110
0000
1001
0000
1001
0000
0010
0000
0101
0000
1100
0000
1100
0000
0011
0011
,
0110
1010
1010
0001
0110
1001
1001
0010
,
0101
0000
1010
0000
1010
0000
0001
0000
1100
0000
0011
0000
0011
0000
1100
1100
,
0101
1010
1010
0001
0110
0101
0101
0010
,
1001
0000
0110
0000
0110
0000
1000
0000
0110
0000
0011
0000
0011
0000
0110
0110
,
1010
1001
1001
0010
0101
1010
1010
0001
,
0110
1100
1100
0001
0001
0000
0000
0000
,
0101
1010
1010
0001
0110
1001
1001
0100
,
0011
0000
1100
0000
1100
0000
0001
0000
1010
0000
0110
0000
0110
0000
1001
1001
,
0011
0101
0101
1000
0011
1100
1100
0001
,
1010
0000
0101
0000
0101
0000
1000
0000
0110
0000
1001
0000
1001
0000
0110
0110
,
1010
0101
0101
1000
0011
1010
1010
0001
,
1100
0000
0011
0000
0011
0000
0100
0000
0011
0000
1001
0000
1001
0000
0011
0011
,
0101
1100
1100
0001
1010
0101
0101
1000
,
0011
0000
0110
0000
0110
0000
1000
0000
1000
0000
0000
0000
0000
0000
0000
1010
,
0101
0000
1010
0000
1010
0000
0101
0000
1010
0101
1010
0000
0101
0000
1010
0000
,
0101
0000
1010
0000
1010
0000
1010
0000
0101
1010
1010
0000
0101
0000
0000
0011
,
1100
0000
0011
0000
0011
0000
0110
0000
1010
0000
1010
1010
0001
1010
0101
0000
,
1010
0110
0110
1001
1100
0000
1010
0000
0101
0000
0110
0110
0110
0000
1010
0101
,
0110
0000
1001
0000
0110
0000
1100
0000
0011
0000
1010
1010
1010
0000
0110
0011
,
1100
1100
1100
0000
0110
0000
0011
0000
1010
0000
0101
0101
0101
0000
1000
0011
,
0110
0000
0110
0000
0011
0000
1010
0000
1010
0000
1100
1100
1100
0000
0110
0011
,
0101
0101
0101
0101
0101
0000
0110
0000
0011
0000
1010
1010
0101
0000
1000
0011
,
0110
0000
0110
0000
0110
0000
0000
0011
1100
1100
1100
0000
0011
0000
0110
0000
,
0011
0000
1100
0000
1100
0000
1100
0000
0101
1010
1010
0000
0110
0000
0000
1010
,
0101
0000
0101
0000
0101
0000
0000
0011
0110
0000
1100
1100
0000
0110
0011
1010
,
0110
0110
0110
0110
1001
0000
0110
0000
0011
0000
0110
0110
0110
0000
1100
0110
,
1100
0000
0110
0000
0011
0000
0110
0000
1001
0000
0011
0011
0011
0000
0110
0011
,
0101
0101
0101
0101
1010
0000
0110
0000
0011
0000
1010
1010
1010
0000
0100
0011
,
0110
0000
1010
0000
0011
0000
0110
0000
0101
0000
1100
1100
1100
0000
0110
0011
,
0110
0110
0110
0110
1001
0000
0110
0000
0011
0000
0000
0000
0000
0000
0000
0000
,
0101
1010
1010
0001
0110
1001
1001
0100
,
0011
0000
1100
0000
1100
0000
0001
0000
1010
0000
0110
0000
0110
0000
1001
1001
,
0011
0101
0101
1000
0011
1100
1100
0001
,
1010
0000
0101
0000
0101
0000
1000
0000
0110
0000
1001
0000
1001
0000
0110
0110
,
1010
0101
0101
1000
0011
1010
1010
0001
,
1100
0000
0011
0000
0011
0000
0100
0000
0011
0000
1001
0000
1001
0000
0011
0011
,
0101
1100
1100
0001
1010
0101
0101
1000
,
0011
0000
0110
0000
0110
0000
1000
0000
1000
0000
0000
0000
0000
0000
0000
0101
,
1010
0000
0101
0000
0101
0000
1010
0000
0101
1010
0101
0000
1010
0000
0101
0000
,
1010
0000
0101
0000
0101
0000
0101
0000
1010
0101
0101
0000
1010
0000
0000
1001
,
0110
0000
1001
0000
1001
0000
0011
0000
0101
0000
0101
0101
0000
0101
1010
0000
,
0101
0011
0011
1100
0110
0000
0101
0000
1010
0000
0011
0011
0011
0000
0101
1010
,
0011
0000
1100
0000
0011
0000
0110
0000
1001
0000
0101
0101
0101
0000
0011
1001
,
0110
0110
0110
0000
0011
0000
1001
0000
0101
0000
1010
1010
1010
0000
1001
0000
,
0011
0000
0011
0000
1001
0000
0101
0000
0101
0000
0110
0110
0110
0000
0011
1001
,
1010
1010
1010
1010
0101
0000
0011
0000
1001
0000
0101
0101
1010
0000
0000
0000
,
0000
0000
0000
0000
,
0000
0000
0000
0000
;
